Post Reply 
 
Thread Rating:
  • 0 Votes - 0 Average
  • 1
  • 2
  • 3
  • 4
  • 5
Filformat i Linux
08-11-2011, 22:22
Post: #1
Filformat i Linux
Det finnes flere Linux distroer for HTPC. Bruker alle samme filformat eller finnes det flere utgaver?
Dreambox er en Linux STB som lagrer video i TS format (med undertekster og Text-TV) samt programinfo i en EIT fil.

Noen som vet om det er en/flere Linux HTPC sw som bruker samme det?
Find all posts by this user
Quote this message in a reply
08-11-2011, 23:14
Post: #2
Filformat i Linux
Tror MythTV gjør dette. Spilte av en fil nå (med mplayer):
TS file format detected.
VIDEO H264(pid=1748) AUDIO MPA(pid=1745) SUB Teletext(pid=1747) PROGRAM N. 1
Find all posts by this user
Quote this message in a reply
09-11-2011, 07:58 (This post was last modified: 09-11-2011 08:15 by Amatoren.)
Post: #3
Filformat i Linux
Takker! Ingen tilleggsfil for programinfo?
Find all posts by this user
Quote this message in a reply
09-11-2011, 10:37
Post: #4
Filformat i Linux
[quote name='Amatoren' timestamp='1320818317' post='5995']
Takker! Ingen tilleggsfil for programinfo?
[/quote]
Mythtv lagrer programinfo i en database, ikke i noen separat fil. Lagret .mpg ser typisk sånn ut i ffmpeg
Code:
ffmpeg -i 2001_20111107212900.mpg

[...]

Input #0, mpegts, from '2001_20111107212900.mpg':                                                                                                          
  Duration: 00:47:57.89, start: 19794.335878, bitrate: 8648 kb/s
  Program 1
    Stream #0.0[0x200]: Video: h264 (High), yuv420p, 1280x720 [PAR 1:1 DAR 16:9], 57.21 fps, 50 tbr, 90k tbn, 100 tbc
    Stream #0.1[0x240](nor): Subtitle: [6][0][0][0] / 0x0006
    Stream #0.2[0x258](nor): Subtitle: dvbsub
    Stream #0.3[0x259](nor): Subtitle: dvbsub (hearing impaired)
    Stream #0.4[0x280](nor): Audio: mp2, 48000 Hz, stereo, s16, 256 kb/s
Find all posts by this user
Quote this message in a reply
09-11-2011, 21:41
Post: #5
Filformat i Linux
Flott!
Find all posts by this user
Quote this message in a reply
10-11-2011, 10:38
Post: #6
Filformat i Linux
En TS (Transport stream) er en MPEG-"dump". Den kan inneholde flere PS (program stream) (video, audio, dvb-tekst etc).
Disse er veldig lette å klippe i siden de er laget for transmisjon.
Grunnen til at Dreambox lagrer i dette formatet er fordi det krever overhodet ingen CPU annet en det som faktisk kreves for å skrive strømmen til disk. Og Dreambox er ikke akkurat noe kraft-monster Wink

http://en.wikipedia.org/wiki/MPEG_transport_stream

Det har egentlig ingenting med Linux å gjøre.

Hvis opptakeren du benytter ikke transcoder strømmen ved mottak, så vil du ende opp med enten MPEG2 (for SD-strømmer, samt noen HD-strømmer) eller H264 i en mpegts-container (som over, for HD-strømmer).
Find all posts by this user
Quote this message in a reply
10-11-2011, 17:12 (This post was last modified: 10-11-2011 17:13 by Amatoren.)
Post: #7
Filformat i Linux
[quote name='ChristianW' timestamp='1320914298' post='5998']
Grunnen til at Dreambox lagrer i dette formatet er fordi det krever overhodet ingen CPU annet en det som faktisk kreves for å skrive strømmen til disk. Og Dreambox er ikke akkurat noe kraft-monster Wink
[/quote]
Ne-e-esten helt riktig. Den lagrer kun kanalen som er ønsket ikke hele "data strømmen" for den transponderen den tar i mot kanalen på. Ja det er en enkel måte å lagre progammer på. Og ja, Dreambox er en slappfisk sånn sett.

Nye wtv formatet til Windows er vel også delvis det. Det er vel ts fil i en "container" innpakking for å få met mere meta data som var i famle DVR-MS filer. For nå kan man ved avspilling av wtv formatet velge språk og undertekster hvis det er flere av de når det tas opp streamer (ikke analoge opptak).

Tenkte å sette opp en Linux maskin som lagerer i ts formatet og så med en cron jobb konverterer til wtv formatet. Kona holder en knapp på WMC for avspilling.
Find all posts by this user
Quote this message in a reply
10-11-2011, 21:05
Post: #8
Filformat i Linux
Burde vel forsåvidt funke å spille av TS-filer direkte i WMC?
Men aner ikke hvordan det håndterer undertekster o.l., da jeg ikke har prøvd det selv.

Et alternativ til WMC er å bruke XBMC, og legge inn MythBox-pluginen. Denne kan koble seg til en MythTV-backend og streame opptak derfra. Live-tv funker også i utviklingsutgaven av XBMC, men kan ikke kalles helt stabilt atm.
Find all posts by this user
Quote this message in a reply
11-11-2011, 11:27
Post: #9
Filformat i Linux
Hverken mythbox plugin eller streaming over native mythprotokoll virker særlig bra i XBMC etter min erfaring. Derimot ser UPNP ut til å fungere uten problemer.
Find all posts by this user
Quote this message in a reply
15-11-2011, 14:44
Post: #10
Filformat i Linux
I beg to differ. Bruker mythbox daglig i XBMC. Funker dog ikke med Live-TV i nåværende XBMC.
Find all posts by this user
Quote this message in a reply
Post Reply 


Forum Jump:


User(s) browsing this thread: 1 Guest(s)